<?xml version="1.0" standalone="no"?>
<!DOCTYPE svg PUBLIC "-//W3C//DTD SVG 1.1//EN" "http://www.w3.org/Graphics/SVG/1.1/DTD/svg11.dtd" >
<svg xmlns="http://www.w3.org/2000/svg">
<metadata>Generated by IcoMoon</metadata>
<defs>
<font id="icomoon" horiz-adv-x="1024">
<font-face units-per-em="1024" ascent="960" descent="-64" />
<missing-glyph horiz-adv-x="1024" />
<glyph unicode="&#x20;" horiz-adv-x="512" d="" />
<glyph unicode="&#xe040;" glyph-name="circle-plus" d="M512 891.733q95.667 0 182.5-37.167t149.667-100 100-149.667 37.167-182.5-37.167-182.5-100-149.667-149.667-100-182.5-37.167-182.5 37.167-149.667 100-100 149.667-37.167 182.5 37.167 182.5 100 149.667 149.667 100 182.5 37.167zM512 806.4q-78 0-149.167-30.5t-122.5-81.833-81.833-122.5-30.5-149.167 30.5-149.167 81.833-122.5 122.5-81.833 149.167-30.5 149.167 30.5 122.5 81.833 81.833 122.5 30.5 149.167-30.5 149.167-81.833 122.5-122.5 81.833-149.167 30.5zM512 635.733q17.667 0 30.167-12.5t12.5-30.167v-128h128q17.667 0 30.167-12.5t12.5-30.167-12.5-30.167-30.167-12.5h-128v-128q0-17.667-12.5-30.167t-30.167-12.5-30.167 12.5-12.5 30.167v128h-128q-17.667 0-30.167 12.5t-12.5 30.167 12.5 30.167 30.167 12.5h128v128q0 17.667 12.5 30.167t30.167 12.5z" />
<glyph unicode="&#xe041;" glyph-name="circle-minus" d="M512 891.733q95.667 0 182.5-37.167t149.667-100 100-149.667 37.167-182.5-37.167-182.5-100-149.667-149.667-100-182.5-37.167-182.5 37.167-149.667 100-100 149.667-37.167 182.5 37.167 182.5 100 149.667 149.667 100 182.5 37.167zM512 806.4q-78 0-149.167-30.5t-122.5-81.833-81.833-122.5-30.5-149.167 30.5-149.167 81.833-122.5 122.5-81.833 149.167-30.5 149.167 30.5 122.5 81.833 81.833 122.5 30.5 149.167-30.5 149.167-81.833 122.5-122.5 81.833-149.167 30.5zM341.333 465.067h341.333q17.667 0 30.167-12.5t12.5-30.167-12.5-30.167-30.167-12.5h-341.333q-17.667 0-30.167 12.5t-12.5 30.167 12.5 30.167 30.167 12.5z" />
<glyph unicode="&#xe600;" glyph-name="locked" d="M234.666 678.399v-149.334l-64 0.002c-47.146 0-85.334-38.186-85.334-85.334v-426.666c0-47.146 38.186-85.334 85.334-85.334h682.666c47.146 0 85.334 38.186 85.334 85.334v426.666c0 47.146-38.186 85.334-85.334 85.334h-64v149.334c0 153.174-124.16 277.334-277.334 277.334-153.172-0.002-277.332-124.162-277.332-277.336zM341.334 529.067v149.334c0 94.294 76.374 170.666 170.666 170.666s170.666-76.374 170.666-170.666v-149.334h-341.332zM426.666 294.399c0 47.146 38.186 85.334 85.334 85.334s85.334-38.186 85.334-85.334c0-30.080-15.574-56.534-39.040-71.68 0 0 8.342-50.346 17.706-109.654 0-17.706-14.294-32-32-32h-64c-17.706 0-32 14.294-32 32l17.706 109.654c-23.466 15.148-39.040 41.6-39.040 71.68z" />
<glyph unicode="&#xe601;" glyph-name="info" d="M448 651.733c0 26.4 21.6 48 48 48h32c26.4 0 48-21.6 48-48v-32c0-26.4-21.6-48-48-48h-32c-26.4 0-48 21.6-48 48v32zM640 187.733h-256v64h64v192h-64v64h192v-256h64zM512 955.733c-282.77 0-512-229.23-512-512s229.23-512 512-512 512 229.23 512 512-229.23 512-512 512zM512 27.733c-229.75 0-416 186.25-416 416s186.25 416 416 416 416-186.25 416-416-186.25-416-416-416z" />
<glyph unicode="&#xe602;" glyph-name="question" d="M512-68.267c-282.75 0-512 229.218-512 512 0 282.75 229.25 512 512 512s512-229.25 512-512c0-282.782-229.25-512-512-512zM512 827.733c-212.062 0-384-171.938-384-384s171.938-384 384-384 384 171.938 384 384-171.938 384-384 384zM512 699.733c-106.062 0-192-85.968-192-192h128c0 35.344 28.624 64 64 64s64-28.656 64-64-28.624-64-64-64c-2.45 0-10.216 0-32 0-17.688 0-32-14.344-32-32v-96h128v11.75c74.376 26.438 128 96.782 128 180.25 0 106.032-85.938 192-192 192zM512 251.733h-64v-64h128v64z" />
<glyph unicode="&#xe603;" glyph-name="lamp" d="M341.334 166.399v-64.214c0-29.866 12.374-56.982 32.214-76.374l62.72-62.72c41.814-41.814 109.654-41.814 151.466 0l62.72 62.72c19.84 19.392 32.214 46.506 32.214 76.374l-0.002 42.882h-189.866c-24.746 0-44.8 19.2-44.8 42.666s20.032 42.666 44.8 42.666h195.414c29.226 164.48 165.12 232.748 165.12 393.174 0 183.446-152.748 332.16-341.334 332.16s-341.334-148.714-341.334-332.16c0-181.142 170.668-245.142 170.668-457.174zM568.534 763.733c-20.054 3.626-35.2 21.12-35.2 42.026 0 23.446 19.2 43.308 42.666 43.308 33.92 0 75.094-24.106 109.654-58.24 35.2-34.988 61.012-81.728 61.012-112.428 0-23.466-19.2-42.666-42.666-42.666-20.906 0-38.4 15.146-42.048 35.2-10.666 42.88-47.318 82.134-93.418 92.8z" />
<glyph unicode="&#xe604;" glyph-name="heart" d="M512 759.403c-21.334 82.986-129.706 132.266-213.334 132.266-164.906 0-298.666-128-298.666-298.666 0-320 304.214-405.334 469.334-597.334 1.472-2.134 3.2-3.862 5.12-5.76 20.886-20.714 54.614-20.714 75.498 0 1.942 1.898 3.2 3.626 4.714 5.76 165.334 192.426 469.334 276.032 469.334 597.334 0 170.666-133.76 298.666-298.666 298.666-83.628 0-192-49.28-213.334-132.266zM739.2 699.669c-20.054 3.626-35.2 21.12-35.2 42.026 0 23.466 19.2 43.306 42.666 43.306 33.92 0 75.094-24.106 109.654-58.24 35.2-34.986 61.014-81.706 61.014-112.426 0-23.466-19.2-42.666-42.666-42.666-20.906 0-38.4 15.146-42.048 35.2-10.668 42.88-47.318 82.134-93.42 92.8z" />
<glyph unicode="&#xe605;" glyph-name="spinner" d="M512 652.637c-32.964 0-59.686 26.724-59.686 59.686v179.060c0 32.964 26.722 59.686 59.686 59.686 32.962 0 59.688-26.722 59.688-59.686v-179.060c0-32.964-26.726-59.686-59.688-59.686zM512-41.223c-20.602 0-37.304 16.702-37.304 37.304v179.060c0 20.602 16.702 37.304 37.304 37.304 20.604 0 37.304-16.704 37.304-37.304v-179.060c0-20.602-16.7-37.304-37.304-37.304zM377.756 620.373c-19.34 0-38.146 10.034-48.512 27.988l-89.53 155.070c-15.452 26.764-6.282 60.986 20.482 76.438 26.762 15.45 60.986 6.284 76.438-20.482l89.53-155.072c15.452-26.764 6.282-60.986-20.482-76.438-8.81-5.084-18.432-7.504-27.926-7.504zM735.856 22.477c-11.602 0-22.886 6.022-29.108 16.792l-89.53 155.070c-9.27 16.056-3.77 36.592 12.29 45.864 16.056 9.264 36.59 3.77 45.864-12.292l89.532-155.068c9.27-16.058 3.768-36.592-12.292-45.864-5.286-3.048-11.060-4.502-16.756-4.502zM279.344 525.793c-8.86 0-17.838 2.256-26.064 7.006l-155.072 89.53c-24.978 14.422-33.538 46.362-19.116 71.342 14.42 24.978 46.364 33.538 71.342 19.116l155.070-89.53c24.98-14.422 33.538-46.362 19.116-71.34-9.668-16.756-27.226-26.124-45.276-26.124zM899.648 190.059c-5.064 0-10.196 1.29-14.894 4.004l-155.068 89.53c-14.274 8.24-19.164 26.494-10.924 40.768 8.242 14.276 26.496 19.166 40.766 10.924l155.070-89.532c14.274-8.24 19.164-26.492 10.924-40.766-5.53-9.574-15.562-14.928-25.874-14.928zM243.41 395.237h-179.060c-26.784 0-48.496 21.712-48.496 48.496s21.712 48.496 48.496 48.496h179.060c26.784 0 48.496-21.712 48.496-48.496s-21.712-48.496-48.496-48.496zM959.65 413.889c-0.002 0 0 0 0 0h-179.060c-16.482 0.002-29.844 13.364-29.844 29.844s13.364 29.844 29.844 29.844c0.002 0 0 0 0 0h179.060c16.482 0 29.844-13.362 29.844-29.844 0-16.48-13.364-29.844-29.844-29.844zM124.366 175.135c-15.472 0-30.518 8.028-38.81 22.39-12.362 21.41-5.026 48.79 16.384 61.148l155.072 89.532c21.41 12.368 48.79 5.028 61.15-16.384 12.362-21.412 5.026-48.79-16.384-61.15l-155.072-89.53c-7.050-4.070-14.748-6.006-22.34-6.006zM744.632 548.181c-10.314 0-20.346 5.352-25.874 14.926-8.24 14.274-3.35 32.526 10.924 40.768l155.070 89.528c14.272 8.236 32.526 3.352 40.768-10.922 8.24-14.274 3.35-32.526-10.924-40.768l-155.070-89.528c-4.7-2.714-9.83-4.004-14.894-4.004zM288.136 15.017c-6.962 0-14.016 1.774-20.48 5.504-19.626 11.332-26.35 36.428-15.020 56.054l89.53 155.070c11.33 19.628 36.426 26.352 56.054 15.022 19.626-11.332 26.35-36.43 15.020-56.054l-89.53-155.072c-7.598-13.166-21.392-20.524-35.574-20.524zM646.266 646.491c-5.062 0-10.196 1.29-14.894 4.002-14.274 8.242-19.164 26.494-10.924 40.766l89.534 155.070c8.24 14.274 26.492 19.166 40.766 10.922 14.274-8.242 19.164-26.494 10.924-40.766l-89.532-155.070c-5.53-9.57-15.56-14.924-25.874-14.924z" />
<glyph unicode="&#xe606;" glyph-name="help" d="M505.754 927.522c-260.147-3.482-468.224-217.19-464.742-477.338 3.482-259.994 217.19-468.122 477.338-464.64 260.045 3.482 468.173 217.19 464.64 477.338-3.43 260.045-217.139 468.122-477.235 464.64zM504.371 169.813h-2.611c-40.038 1.178-68.301 30.72-67.174 70.195 1.126 38.758 30.054 66.97 68.813 66.97l2.355-0.051c41.165-1.229 69.12-30.464 67.891-71.066-1.126-38.861-29.645-66.048-69.274-66.048zM672.87 504.251c-9.472-13.363-30.157-30.003-56.269-50.33l-28.774-19.866c-15.77-12.288-25.293-23.808-28.826-35.123-2.867-9.011-4.198-11.315-4.454-29.491l-0.051-4.659h-109.722l0.307 9.318c1.331 38.195 2.304 60.621 18.125 79.206 24.832 29.133 79.616 64.41 81.92 65.894 7.834 5.939 14.438 12.646 19.405 19.814 11.52 15.872 16.589 28.416 16.589 40.653 0 17.050-5.069 32.819-15.053 46.848-9.626 13.568-27.904 20.429-54.323 20.429-26.214 0-44.134-8.346-54.886-25.395-11.11-17.562-16.64-35.942-16.64-54.784v-4.71h-113.152l0.205 4.915c2.918 69.325 27.648 119.194 73.523 148.326 28.774 18.586 64.614 27.955 106.394 27.955 54.733 0 101.018-13.312 137.37-39.526 36.864-26.573 55.552-66.406 55.552-118.323 0-29.082-9.165-56.371-27.238-81.152z" />
<glyph unicode="&#xe607;" glyph-name="spinner2" d="M512 955.733c-66.862-1.278-133.516-15.784-194.462-42.576-61-26.704-116.258-65.462-161.92-113.042-45.696-47.552-81.82-103.944-105.652-164.984-23.924-61.004-35.352-126.596-33.966-191.398 1.282-64.81 15.374-129.332 41.356-188.334 25.896-59.048 63.47-112.542 109.576-156.734 46.082-44.224 100.708-79.16 159.798-102.186 59.062-23.114 122.52-34.128 185.27-32.746 62.76 1.286 125.148 14.964 182.206 40.134 57.1 25.088 108.828 61.476 151.548 106.11 42.754 44.61 76.504 97.472 98.72 154.614 22.304 57.118 32.902 118.446 31.526 179.142-1.29 60.708-14.554 120.962-38.914 176.076-24.282 55.15-59.48 105.116-102.644 146.366-43.14 41.282-94.236 73.844-149.43 95.254-33.458 13.034-68.4 21.88-103.798 26.542 0.072 1.246 0.12 2.498 0.12 3.762 0 35.346-28.652 64-64 64-1.796 0-3.572-0.094-5.332-0.238v0.238zM681.948 854.039c53.202-23.472 101.4-57.484 141.18-99.178 39.81-41.67 71.186-91 91.79-144.244 20.678-53.228 30.452-110.29 29.082-166.884-1.298-56.604-13.736-112.596-36.474-163.82-22.666-51.25-55.49-97.684-95.712-135.994-40.198-38.338-87.764-68.528-139.058-88.322-51.284-19.87-106.214-29.228-160.756-27.864-54.552 1.302-108.412 13.328-157.69 35.254-49.3 21.858-93.97 53.498-130.81 92.246-36.868 38.73-65.87 84.53-84.856 133.874-19.060 49.338-28.006 102.136-26.644 154.626 1.306 52.5 12.918 104.228 34.034 151.562 21.050 47.352 51.502 90.256 88.782 125.624 37.258 35.396 81.294 63.21 128.688 81.39 47.392 18.248 98.058 26.782 148.496 25.424v0.238c1.76-0.144 3.536-0.238 5.332-0.238 33.012 0 60.174 24.992 63.624 57.086 34.822-6.224 68.818-16.53 100.992-30.78z" />
<glyph unicode="&#xe800;" glyph-name="give-icon-full-circle-white" horiz-adv-x="1023" d="M939.969 418.328c-12.377-62.534-78.819-313.975-341.985-313.975-313.975 0-457.282 340.031-457.282 340.031 104.875 63.837 282.707 338.728 450.768 338.728s227.338-207.796 227.338-207.796l-14.331-22.799c0 0-55.369 69.7-182.392 69.7s-214.31-153.079-267.725-200.631c0 0 133.537-209.099 305.506-209.099 92.499 0 192.163 80.122 248.183 200.631-97.71-13.679-226.036-26.056-316.58-14.331 0 0-4.56 3.908-6.514 8.468-2.606 5.863-3.257 11.725-3.257 11.725 179.786 0 334.168 42.341 439.043 81.425-28.662 256.651-245.578 455.328-508.743 455.328-282.707 0-512-229.293-512-512s229.293-512 512-512c278.799 0 505.486 222.779 512 500.275-19.542-3.257-48.855-8.468-84.031-13.679z" />
<glyph unicode="&#xe8df;" glyph-name="wallet" d="M819.2 665.6h-640v25.6l563.2 45.056v-45.056h76.8v76.8c0 56.32-45.619 95.846-101.325 87.91l-514.099-73.421c-55.757-7.987-101.376-60.57-101.376-116.89v-512c0-56.525 45.824-102.4 102.4-102.4h614.4c56.525 0 102.4 45.875 102.4 102.4v409.6c0 56.525-45.875 102.4-102.4 102.4zM742.4 306.893c-42.394 0-76.8 34.406-76.8 76.8s34.406 76.8 76.8 76.8 76.8-34.406 76.8-76.8-34.406-76.8-76.8-76.8z" />
<glyph unicode="&#xe900;" glyph-name="check-square-o" horiz-adv-x="950" d="M804.571 419.428v-181.714q0-68-48.286-116.286t-116.286-48.286h-475.429q-68 0-116.286 48.286t-48.286 116.286v475.429q0 68 48.286 116.286t116.286 48.286h475.429q36 0 66.857-14.286 8.571-4 10.286-13.143 1.714-9.714-5.143-16.571l-28-28q-5.714-5.714-13.143-5.714-1.714 0-5.143 1.143-13.143 3.429-25.714 3.429h-475.429q-37.714 0-64.571-26.857t-26.857-64.571v-475.429q0-37.714 26.857-64.571t64.571-26.857h475.429q37.714 0 64.571 26.857t26.857 64.571v145.143q0 7.429 5.143 12.571l36.571 36.571q5.714 5.714 13.143 5.714 3.429 0 6.857-1.714 11.429-4.571 11.429-16.571zM936.571 698.857l-465.143-465.143q-13.714-13.714-32.571-13.714t-32.571 13.714l-245.714 245.714q-13.714 13.714-13.714 32.571t13.714 32.571l62.857 62.857q13.714 13.714 32.571 13.714t32.571-13.714l150.286-150.286 369.714 369.714q13.714 13.714 32.571 13.714t32.571-13.714l62.857-62.857q13.714-13.714 13.714-32.571t-13.714-32.571z" />
<glyph unicode="&#xe901;" glyph-name="1-66" d="M590.24 384.773l-74.496-68.304c-2.32-2.096-4.736-4.288-7.216-6.576-9.568-52.832-55.904-93.008-111.44-93.008-62.432 0-113.248 50.8-113.248 113.248 0 57.552 43.152 105.184 98.768 112.304 1.072 1.2 2.128 2.352 3.152 3.504l29.584 33.2 0.688-0.224c13.040 14.224 28.032 30.576 39.632 43.232-18.528 5.648-38.208 8.704-58.56 8.704-110.688 0-200.72-90.032-200.72-200.72s90.032-200.72 200.72-200.72c110.688 0 200.72 90.032 200.72 200.72-0.016 18.944-2.656 37.264-7.584 54.64zM736.944 519.173c-22.416-20.4-44.768-40.88-66.848-61.152 18.272-38.848 28.48-82.208 28.48-127.888 0-166.24-135.248-301.488-301.488-301.488s-301.488 135.264-301.488 301.488 135.248 301.488 301.488 301.488c47.072 0 91.664-10.848 131.392-30.16 20.192 22.032 40.624 44.32 60.944 66.656-56.752 32.432-122.416 50.976-192.336 50.976-214.464 0-388.96-174.496-388.96-388.96s174.496-388.96 388.96-388.96 388.96 174.496 388.96 388.96c0.016 68.576-17.824 133.056-49.104 189.040zM1013.696 762.053c-1.712 4.496-4.128 8.32-7.184 11.376-8.208 8.208-19.008 9.344-29.44 9.344-15.12 0-30.224 0.096-45.344 0.208-23.36 0.16-47.52 0.32-71.312 0.080-1.6-0.016-2.64 0.080-3.264 0.176l-1.28 3.056-3.056 1.28c-0.096 0.64-0.192 1.664-0.176 3.264 0.24 23.792 0.064 47.952-0.080 71.328-0.096 15.104-0.208 30.224-0.208 45.344 0 10.432-1.136 21.232-9.344 29.44-3.056 3.056-6.88 5.472-11.392 7.184-19.376 7.328-32.304-5.76-38.528-12.048-10.56-10.736-21.184-21.408-31.792-32.112-24.256-24.416-49.328-49.664-73.488-75.12-7.856-8.32-13.376-21.936-13.728-33.888-0.544-18.48-0.4-37.168-0.256-55.264 0.128-16.464 0.272-33.472-0.128-50.112-0.128-5.408-2.88-12.448-6.416-16.368-41.28-45.776-83.696-91.952-124.72-136.592l-33.776-36.8c-18.16-19.824-61.008-66.56-75.44-82.256l-0.128 0.048-4.944-5.552c-3.232-3.616-6.752-7.488-10.48-11.584-11.52-12.64-24.592-26.96-36.736-42.512-8.752-11.232-4.048-27.904 5.568-37.52 0.352-0.352 0.704-0.688 1.056-1.008 9.136-8.272 24.256-13.024 35.872-3.952 15.872 12.416 30.464 25.744 43.328 37.52 3.776 3.456 7.376 6.752 10.848 9.856l124.48 114.128c44.656 41.024 90.832 83.44 136.592 124.72 3.92 3.536 10.96 6.288 16.384 6.416 16.624 0.4 33.648 0.256 50.112 0.128 18.080-0.144 36.784-0.288 55.264 0.256 11.952 0.352 25.568 5.872 33.904 13.744 25.44 24.144 50.688 49.216 75.104 73.472 10.688 10.608 21.376 21.232 32.112 31.808 6.272 6.192 19.344 19.104 12.016 38.512z" />
<glyph unicode="&#xe902;" glyph-name="write" d="M910.284 341.333c-31.445 0-56.889-25.472-56.889-56.889v-142.222c0-15.708-12.75-28.444-28.444-28.444h-625.888c-15.723 0-28.444 12.736-28.444 28.444v625.778c0 15.708 12.722 28.444 28.444 28.444h142.222c31.445 0 56.917 25.472 56.917 56.889s-25.474 56.889-56.917 56.889h-227.556c-31.445 0-56.917-25.472-56.917-56.889v-796.444c0-31.417 25.472-56.889 56.917-56.889h796.555c31.445 0 56.889 25.472 56.889 56.889v227.556c0 31.417-25.444 56.889-56.889 56.889zM749.173 773.541l81.305-81.319-338.388-350.889h-93.888v93.876l350.971 338.332zM749.895 910.222c-14.556 0-29.060-5.541-40.171-16.626l-425.328-410.041v-256h256.055l410.112 425.25c22.167 22.167 22.167 58.098 0 80.263l-160.556 160.528c-11.056 11.084-25.611 16.626-40.112 16.626v0z" />
<glyph unicode="&#xe903;" glyph-name="chevron-right" d="M469.146 741.581c21.402-20.89 230.502-240.384 230.502-240.384 11.418-11.213 17.152-25.805 17.152-40.397s-5.734-29.184-17.152-40.294c0 0-209.101-219.597-230.502-240.384-21.402-20.89-59.904-22.323-82.688 0-22.835 22.221-24.627 53.299 0 80.589l191.846 200.090-191.846 200.090c-24.627 27.29-22.835 58.419 0 80.691 22.784 22.323 61.286 20.941 82.688 0z" />
<glyph unicode="&#xe90c;" glyph-name="monitor" d="M960 192c0 0-264 0-320 0s64-192 64-192c0-35.328-28.672-64-64-64h-256c-35.328 0-64 28.672-64 64 0 0 121.984 192 64 192s-320 0-320 0c-35.328 0-64 28.672-64 64v640c0 35.328 28.672 64 64 64h896c35.328 0 64-28.672 64-64v-640c0-35.328-28.672-64-64-64zM512 224c35.328 0 64 28.672 64 64s-28.672 64-64 64-64-28.672-64-64 28.672-64 64-64zM960 832c0 35.328-28.672 64-64 64h-768c-35.328 0-64-28.672-64-64v-384c0-35.328 28.672-64 64-64h768c35.328 0 64 28.672 64 64v384z" />
<glyph unicode="&#xea7e;" glyph-name="new-tab" d="M192 891.733v-768h768v768h-768zM896 187.733h-640v640h640v-640zM128 59.733v672l-64 64v-800h800l-64 64h-672zM352 699.733l160-160-192-192 96-96 192 192 160-160v416z" />
<glyph unicode="&#xf02d;" glyph-name="alert" d="M1005.854 155.486l-438.286 767c-11.395 19.941-32.601 32.247-55.568 32.247s-44.173-12.306-55.567-32.247l-438.286-767c-11.319-19.809-11.238-44.144 0.213-63.876s32.539-31.877 55.354-31.877h876.572c22.814 0 43.903 12.145 55.354 31.877s11.533 44.067 0.214 63.876zM576 187.733h-128v128h128v-128zM576 379.733h-128v256h128v-256z" />
</font>
</defs>
</svg>
